PDA

View Full Version : DMB2005-07-20.akg483.flac16 (Crumbo)


Matt
06-04-2014, 01:09 AM
View this show in Tour Central (http://www.antsmarching.org/tour/ViewShow.php?ShowID=3510)

Dave Matthews Band
Starwood Amphitheatre
Antioch, TN
July 20, 2005

Taper: Crumbo
Location: Section 4, Row J, Seats 1 & 2
Source: AKG 480/ck63 (A-B, ~16')>Opti-Mod V3>JB3
Conversion: JB3>Firewire>WaveLab 5.0>CDWav 1.94.3>FLAC Frontend 1.7.1 (Level 6)


***DO NOT DISTRIBUTE IN LOSSY FORMATS***
***DO NOT REMASTER/ALTER WITHOUT PERMISSION***

Disc 1: 57:37.39

01. Intro
02. Everyday
03. American Baby Intro>
04. Dream Girl>
05. Crash
06. You Never Know
07. Time Of The Season
08. Hunger For The Great Light

Disc 2: 59:02.61

01. Jimi Thing
02. Steady As We Go
03. American Baby
04. Intro to...>
05. Crush
06. You Might Die Trying
07. Stolen Away On 55th & 3rd

Disc 3: 56:21.41

01. Warehouse
02. Stand Up *
03. Louisiana Bayou *
04. (#40)
05. Old Dirt Hill
06. Intro to...>
07. What You Are


Notes:

*Special Guest Robert Randolph.
-Thanks to Ben and Chrissy for trading seats.
-Thanks to Stace for the setup and breakdown help and for the ride.

Sector boundaries verified with shntool 2.0.3:

length expanded size cdr WAVE problems filename
4:17.00 45334844 --- -- ---xx dmb2005-07-20.akg483.v3.d1t01.flac
8:46.13 92817020 --- -- ---xx dmb2005-07-20.akg483.v3.d1t02.flac
7:15.61 76877516 --- -- ---xx dmb2005-07-20.akg483.v3.d1t03.flac
10:20.22 109419788 --- -- ---xx dmb2005-07-20.akg483.v3.d1t04.flac
7:59.64 84646172 --- -- ---xx dmb2005-07-20.akg483.v3.d1t05.flac
9:01.05 95444204 --- -- ---xx dmb2005-07-20.akg483.v3.d1t06.flac
5:32.27 58628348 --- -- ---xx dmb2005-07-20.akg483.v3.d1t07.flac
4:24.72 46738988 --- -- ---xx dmb2005-07-20.akg483.v3.d1t08.flac
17:37.30 186525404 --- -- ---xx dmb2005-07-20.akg483.v3.d2t01.flac
5:48.48 61500140 --- -- ---xx dmb2005-07-20.akg483.v3.d2t02.flac
4:58.21 52616636 --- -- ---xx dmb2005-07-20.akg483.v3.d2t03.flac
1:03.15 11148524 --- -- ---xx dmb2005-07-20.akg483.v3.d2t04.flac
13:49.38 146325020 --- -- ---xx dmb2005-07-20.akg483.v3.d2t05.flac
9:10.52 97142348 --- -- ---xx dmb2005-07-20.akg483.v3.d2t06.flac
6:35.07 69694508 --- -- ---xx dmb2005-07-20.akg483.v3.d2t07.flac
11:37.19 122995532 --- -- ---xx dmb2005-07-20.akg483.v3.d3t01.flac
5:42.05 60340604 --- -- ---xx dmb2005-07-20.akg483.v3.d3t02.flac
19:23.06 205167356 --- -- ---xx dmb2005-07-20.akg483.v3.d3t03.flac
1:08.17 12035228 --- -- ---xx dmb2005-07-20.akg483.v3.d3t04.flac
8:16.01 87496796 --- -- ---xx dmb2005-07-20.akg483.v3.d3t05.flac
4:12.12 44481068 --- -- ---xx dmb2005-07-20.akg483.v3.d3t06.flac
6:02.56 63988556 --- -- ---xx dmb2005-07-20.akg483.v3.d3t07.flac
173:01.66 1746.53 MB (totals for 22 files, 0.5449 overall compression ratio)

Compiled by Crumbo 7-21-2005
http://db.etree.org/md5view.php?md5key=56065

Fingerprint/MD5:
dmb2005-07-20.akg483.v3.d1t01.flac:adf20d11c4c20e31b11db87a82 8e2350
dmb2005-07-20.akg483.v3.d1t02.flac:3b24db55bfff3b4b0c7f7f07c4 d2d65a
dmb2005-07-20.akg483.v3.d1t03.flac:f97c6c987147161557288f34e2 437831
dmb2005-07-20.akg483.v3.d1t04.flac:edf5adbf88f418338f1c7ad94f 7ea824
dmb2005-07-20.akg483.v3.d1t05.flac:bd5aa8b34c1a1951a8c52232fa 10489f
dmb2005-07-20.akg483.v3.d1t06.flac:17484de249134a9de711416833 df6992
dmb2005-07-20.akg483.v3.d1t07.flac:0cf2f612feb8b2cabf9313d41b b3d695
dmb2005-07-20.akg483.v3.d1t08.flac:c2b27772b338c5a57ff8c45c4a bf8771
dmb2005-07-20.akg483.v3.d2t01.flac:6421bd12e8d9499703355fc637 924501
dmb2005-07-20.akg483.v3.d2t02.flac:c356100ec6b1eca49518017ed6 0717b4
dmb2005-07-20.akg483.v3.d2t03.flac:63c782bfbb36c5bf6f6574f598 2d6c8b
dmb2005-07-20.akg483.v3.d2t04.flac:75aafd3473eb628f1b10dc8e5e 472181
dmb2005-07-20.akg483.v3.d2t05.flac:7f6ef4d675f330b55509bf1473 79d997
dmb2005-07-20.akg483.v3.d2t06.flac:515bc9d61c43fa675e0a900c57 a4dfe5
dmb2005-07-20.akg483.v3.d2t07.flac:e35c50c146da67cc167a8efcaf 0d0b93
dmb2005-07-20.akg483.v3.d3t01.flac:f8e0889b2e34cff08252082aef e10fa0
dmb2005-07-20.akg483.v3.d3t02.flac:ae468ed6faed439bce0d530b10 5fb370
dmb2005-07-20.akg483.v3.d3t03.flac:5112dabae2a653c26c12df07d3 e0a24e
dmb2005-07-20.akg483.v3.d3t04.flac:b40fdf0f0df3fe378ebf88b995 3e87d3
dmb2005-07-20.akg483.v3.d3t05.flac:d0ef634e3ea5143080797cc144 bc408c
dmb2005-07-20.akg483.v3.d3t06.flac:86e069d41994cfed49edb77563 3dbba0
dmb2005-07-20.akg483.v3.d3t07.flac:e594a8caf51ec9de3ecb3dc4e1 7667e7