PDA

View Full Version : DMB2005-08-19.akg483.flac16 (Crumbo)


Matt
06-04-2014, 01:12 AM
View this show in Tour Central (http://www.antsmarching.org/tour/ViewShow.php?ShowID=3518)

Dave Matthews Band
Gorge Amphitheatre
George, WA
August 19, 2005

Taper: Crumbo
Location: Section C, Row 6, Seats 1 & 2
Source: AKG 480/ck63 (A-B, 12')>Opti-Mod V3>JB3
Conversion: JB3>Firewire>WaveLab 5.0>CDWav 1.94.3>FLAC Frontend 1.7.1 (Level 6)


***DO NOT DISTRIBUTE IN LOSSY FORMATS***
***DO NOT REMASTER/ALTER WITHOUT PERMISSION***

Disc 1: 61:39.63

01. Intro
02. One Sweet World
03. Intro to...>
04. Don’t Drink the Water
05. Dream Girl
06. Rhyme & Reason
07. Seek Up

Disc 2: 52:55.38

01. Hunger For The Great Light
02. Where Are You Going
03. American Baby Intro
04. American Baby
05. The Stone
06. Jimi Thing

Disc 3: 51:03.20

01. Stolen Away On 55th & 3rd
02. Louisiana Bayou
03. So Much To Say>
04. Anyone Seen The Bridge?>
05. Too Much
06. Smooth Rider
07. Tripping Billies


Notes:

-Thanks to Jay for the tickets and to Matt for all the help.


Sector boundaries verified with shntool 2.0.3:

length expanded size cdr WAVE problems filename
2:52.05 30352604 --- -- ---xx dmb2005-08-19.akg483.v3.d1t01.flac
6:18.06 66693356 --- -- ---xx dmb2005-08-19.akg483.v3.d1t02.flac
4:25.14 46778972 --- -- ---xx dmb2005-08-19.akg483.v3.d1t03.flac
7:50.18 82950380 --- -- ---xx dmb2005-08-19.akg483.v3.d1t04.flac
10:13.70 108297884 --- -- ---xx dmb2005-08-19.akg483.v3.d1t05.flac
6:37.13 70061420 --- -- ---xx dmb2005-08-19.akg483.v3.d1t06.flac
23:23.12 247517468 --- -- ---xx dmb2005-08-19.akg483.v3.d1t07.flac
4:27.52 47221148 --- -- ---xx dmb2005-08-19.akg483.v3.d2t01.flac
4:09.61 44067116 --- -- ---xx dmb2005-08-19.akg483.v3.d2t02.flac
7:48.74 82729292 --- -- ---xx dmb2005-08-19.akg483.v3.d2t03.flac
4:48.58 50939660 --- -- ---xx dmb2005-08-19.akg483.v3.d2t04.flac
9:41.05 102500204 --- -- ---xx dmb2005-08-19.akg483.v3.d2t05.flac
21:59.13 232702220 --- -- ---xx dmb2005-08-19.akg483.v3.d2t06.flac
6:47.07 71811308 --- -- ---xx dmb2005-08-19.akg483.v3.d3t01.flac
10:19.01 109193996 --- -- ---xx dmb2005-08-19.akg483.v3.d3t02.flac
4:14.22 44857388 --- -- ---xx dmb2005-08-19.akg483.v3.d3t03.flac
1:22.25 14523644 --- -- ---xx dmb2005-08-19.akg483.v3.d3t04.flac
15:15.25 161464844 --- -- ---xx dmb2005-08-19.akg483.v3.d3t05.flac
6:48.59 72110012 --- -- ---xx dmb2005-08-19.akg483.v3.d3t06.flac
6:16.31 66399356 --- -- ---xx dmb2005-08-19.akg483.v3.d3t07.flac
165:38.46 1671.96 MB (totals for 20 files, 0.5604 overall compression ratio)



Compiled by Crumbo 8-20-2005

Fingerprint/MD5: