PDA

View Full Version : DMB2005-12-10.akg483.flac16 (Crumbo)


Matt
06-04-2014, 01:12 AM
View this show in Tour Central (http://www.antsmarching.org/tour/ViewShow.php?ShowID=3580)

Dave Matthews Band
Madison Square Garden
New York, NY
December 10, 2005

Taper: Crumbo
Location: Section 2, Row U, Seats 1 & 2
Source: AKG 480/ck63 (DIN, ~12')>Opti-Mod V3>JB3
Conversion: JB3>Firewire>WaveLab 5.0>CDWav 1.94.3>FLAC Frontend 1.7.1 (Level 6)


***DO NOT DISTRIBUTE IN LOSSY FORMATS***
***DO NOT REMASTER/ALTER WITHOUT PERMISSION***

Disc 1: 66:58.44

01. Intro
02. Pantala Naga Pampa > Rapunzel *
03. What Would You Say
04. #41 *
05. One Sweet World *
06. So Much To Say *
07. Seek Up


Disc 2: 55:39.07

01. Hunger For The Great Light *
02. Minarets
03. Dream Girl
04. Linus And Lucy *
05. Stand Up *
06. Jimi Thing *+

Disc 3: 51:42.34

01. Smooth Rider *~
02. Louisiana Bayou ~*
03. Encore Break
04. Christmas Song
05. Halloween >
06. Ants Marching


Notes:

* Rashawn Ross
+ Mike Doughty
~ Robert Randolph
-Thanks to Scott for all the help.


Sector boundaries verified with shntool 2.0.3:

length expanded size cdr WAVE problems filename
3:08.31 33236156 --- -- ---xx dmb2005-12-10.akg483.v3.d1t01.flac
8:36.26 91083596 --- -- ---xx dmb2005-12-10.akg483.v3.d1t02.flac
7:39.44 81071132 --- -- ---xx dmb2005-12-10.akg483.v3.d1t03.flac
10:59.54 116374652 --- -- ---xx dmb2005-12-10.akg483.v3.d1t04.flac
7:00.12 74116268 --- -- ---xx dmb2005-12-10.akg483.v3.d1t05.flac
5:12.42 55135628 --- -- ---xx dmb2005-12-10.akg483.v3.d1t06.flac
24:21.60 257861564 --- -- ---xx dmb2005-12-10.akg483.v3.d1t07.flac
4:19.49 45802892 --- -- ---xx dmb2005-12-10.akg483.v3.d2t01.flac
9:10.31 97092956 --- -- ---xx dmb2005-12-10.akg483.v3.d2t02.flac
11:44.04 124195052 --- -- ---xx dmb2005-12-10.akg483.v3.d2t03.flac
4:44.33 50175260 --- -- ---xx dmb2005-12-10.akg483.v3.d2t04.flac
5:23.03 56984300 --- -- ---xx dmb2005-12-10.akg483.v3.d2t05.flac
20:17.37 214765868 --- -- ---xx dmb2005-12-10.akg483.v3.d2t06.flac
13:51.52 146710748 --- -- ---xx dmb2005-12-10.akg483.v3.d3t01.flac
9:43.56 102972956 --- -- ---xx dmb2005-12-10.akg483.v3.d3t02.flac
7:07.12 75351068 --- -- ---xx dmb2005-12-10.akg483.v3.d3t03.flac
6:41.15 70771724 --- -- ---xx dmb2005-12-10.akg483.v3.d3t04.flac
6:15.48 66262940 --- -- ---xx dmb2005-12-10.akg483.v3.d3t05.flac
8:03.01 85203596 --- -- ---xx dmb2005-12-10.akg483.v3.d3t06.flac
174:20.10 1759.69 MB (totals for 19 files, 0.5744 overall compression ratio)


Compiled by Crumbo 12-11-2005.

Fingerprint/MD5:

Young
08-11-2020, 03:30 PM
my father attended this show. he was very happy that they played halloween and christmas song. i'm going to share it with him for his birthday. thank you so much for this.