PDA

View Full Version : DMB2005-08-20.akg483.flac16 (Crumbo)


Matt
06-04-2014, 01:16 AM
View this show in Tour Central (http://www.antsmarching.org/tour/ViewShow.php?ShowID=3519)

Dave Matthews Band
Gorge Amphitheatre
George, WA
August 20, 2005

Taper: Crumbo
Location: Section C, Row 2, Seats 1 & 2
Source: AKG 480/ck63 (A-B, 12')>Opti-Mod V3>JB3
Conversion: JB3>Firewire>WaveLab 5.0>CDWav 1.94.3>FLAC Frontend 1.7.1 (Level 6)


***DO NOT DISTRIBUTE IN LOSSY FORMATS***
***DO NOT REMASTER/ALTER WITHOUT PERMISSION***


Disc 1: 74:27.47

01. Intro
02. #41
03. When The World Ends
04. Best of Whats Around
05. Stand Up
06. Crash
07. #34
08. Dream Girl (Blackbird)
09. Lie In Our Graves

Disc 2: 77:54.72

01. You Never Know
02. What Would You Say
03. You Might Die Trying
04. Granny
05. Hunger For The Great Light
06. Everyday>
07. Ants Marching
08. Encore Break
09. (Butterfly)
10. Old Dirt Hill>
11. Two Step


Notes:

-Thanks to Jay for the tickets and to Matt for all the help.
-Part of the encore break cut out so the show could fit on 2 discs and crossfade applied.


Sector boundaries verified with shntool 2.0.3:

length expanded size cdr WAVE problems filename
1:56.59 20601212 --- -- ---xx dmb2005-08-20.akg483.v3.d1t01.flac
13:05.49 138589292 --- -- ---xx dmb2005-08-20.akg483.v3.d1t02.flac
4:37.74 49036892 --- -- ---xx dmb2005-08-20.akg483.v3.d1t03.flac
6:51.37 72587468 --- -- ---xx dmb2005-08-20.akg483.v3.d1t04.flac
5:08.17 54371228 --- -- ---xx dmb2005-08-20.akg483.v3.d1t05.flac
6:38.50 70324844 --- -- ---xx dmb2005-08-20.akg483.v3.d1t06.flac
6:35.60 69819164 --- -- ---xx dmb2005-08-20.akg483.v3.d1t07.flac
10:59.49 116362892 --- -- ---xx dmb2005-08-20.akg483.v3.d1t08.flac
18:33.27 196396748 --- -- ---xx dmb2005-08-20.akg483.v3.d1t09.flac
7:59.23 84549740 --- -- ---xx dmb2005-08-20.akg483.v3.d2t01.flac
7:10.03 75859100 --- -- ---xx dmb2005-08-20.akg483.v3.d2t02.flac
7:06.54 75273452 --- -- ---xx dmb2005-08-20.akg483.v3.d2t03.flac
4:56.25 52273244 --- -- ---xx dmb2005-08-20.akg483.v3.d2t04.flac
4:31.56 47936156 --- -- ---xx dmb2005-08-20.akg483.v3.d2t05.flac
8:11.54 86739452 --- -- ---xx dmb2005-08-20.akg483.v3.d2t06.flac
7:23.05 78157004 --- -- ---xx dmb2005-08-20.akg483.v3.d2t07.flac
2:22.47 25159388 --- -- ---xx dmb2005-08-20.akg483.v3.d2t08.flac
0:51.18 9038780 --- -- ---xx dmb2005-08-20.akg483.v3.d2t09.flac
7:13.26 76442396 --- -- ---xx dmb2005-08-20.akg483.v3.d2t10.flac
20:08.61 213234716 --- -- ---xx dmb2005-08-20.akg483.v3.d2t11.flac
152:22.44 1538.04 MB (totals for 20 files, 0.5475 overall compression ratio)


Compiled by Crumbo 8-21-2005

Fingerprint/MD5: