PDA

View Full Version : DMB2008-08-01.mk4v.flac16 (Brent Stober)


Matt
01-30-2016, 02:16 PM
View this show in Tour Central (http://www.antsmarching.org/tour/ViewShow.php?ShowID=3839)

Dave Matthews Band
August 1st 2008 Louisville Slugger Field
Louisville, Ky

Source: FOB SROC Schoeps mk4v (DIN) > kc5 > cmc6 >Lunatec V2 > Sound Devices 702 @24/48
Transfer: Sound Devices 702 > firewire > PC > Wavelab 5.0 >CDWave > xACT > Flac 16/44.1
Taped and Transfered: Brent Stober

Disc 1

01.Intro
02.One Sweet World
03.Seek Up
04.Everyday
05.Grey Street
06.Gravedigger *
07.Eh Hee
08.Cornbread
09.Burning Down the House
10.Sleep To Dream Her

Disc 2

01.Two Step
02 Out of My Hands #
03.#41
04.You Might Die Trying *
05.Sledgehammer

Disc 3

01.Dancing Nancies
02.Anyone Seen the Bridge ->
03.Too Much (Fake) ->
04.Ants Marching
05.encore break
06.Pantala Naga Pampa ->
07.Rapunzel
08.Stay (Wasting Time)


* = with Willie Nelson
# = Dave on Piano

Entire set with Tim Reynolds on electric guitar,Rashawn
Ross on Trumpet & Jeff Coffin on Sax (filling in for Leroi due to injury)

Fingerprint/MD5:
dmb2008-08-01d1t01.flac:bf6ffff5e6ca6d5621f495e0e136c1e3
dmb2008-08-01d1t02.flac:76c5801927bcd740897d5f7b357786a1
dmb2008-08-01d1t03.flac:8b5a80c1fcb0e7df9297423522ea70e7
dmb2008-08-01d1t04.flac:c00718591be6ec236d54ea885d261e17
dmb2008-08-01d1t05.flac:62a304251d9611f4a353c07878e44181
dmb2008-08-01d1t06.flac:69ddcdcb1ab403e1574d48e5f33523e2
dmb2008-08-01d1t07.flac:6e1e64233b51e26d35a12be2a70432be
dmb2008-08-01d1t08.flac:ca4105f4b00608858f79d70e4e2d4e93
dmb2008-08-01d1t09.flac:8d75104c1e7e17e8edca3e3ccbabe5e5
dmb2008-08-01d1t10.flac:123f3cc80bbe5033d4efd1d3a843fa0e
dmb2008-08-01d2t01.flac:828ae5b6ad4e245a45e0fb10104bddb4
dmb2008-08-01d2t02.flac:4d1286491ab10ff05cef37776393a4dd
dmb2008-08-01d2t03.flac:121ef396d12ad82d923224669484acc5
dmb2008-08-01d2t04.flac:0e03bf30b260a68f52fc35106a5bfe7d
dmb2008-08-01d2t05.flac:303d1e054bef3d64dba033d469f32fbc
dmb2008-08-01d3t01.flac:64a44d07894e4c80d5a09660a9c3f773
dmb2008-08-01d3t02.flac:95da7efa867954d8ef4072d7aa6bcf32
dmb2008-08-01d3t03.flac:512e39869e4e5ae89b3df46c787c5b77
dmb2008-08-01d3t04.flac:9dff6c9605893bc36397a22e4ce60be9
dmb2008-08-01d3t05.flac:40287cd5f4560f47232271536acecfa2
dmb2008-08-01d3t06.flac:71114443b639094d7d849531ca3e965c
dmb2008-08-01d3t07.flac:61e287666ca7c29ba9337ae655c42e9c
dmb2008-08-01d3t08.flac:b24aee085600c16d6e2c08bbc0f12d32


length expanded size cdr WAVE problems filename
1:43.69 18331532 --- -- ---xx dmb2008-08-01d1t01.flac
7:43.74 81847292 --- -- ---xx dmb2008-08-01d1t02.flac
16:48.69 177973532 --- -- ---xx dmb2008-08-01d1t03.flac
9:09.48 96956540 --- -- ---xx dmb2008-08-01d1t04.flac
6:37.17 70070828 --- -- ---xx dmb2008-08-01d1t05.flac
6:19.27 66919148 --- -- ---xx dmb2008-08-01d1t06.flac
4:18.55 45640604 --- -- ---xx dmb2008-08-01d1t07.flac
7:40.02 81148748 --- -- ---xx dmb2008-08-01d1t08.flac
4:50.33 51233660 --- -- ---xx dmb2008-08-01d1t09.flac
4:40.66 49547276 --- -- ---xx dmb2008-08-01d1t10.flac
16:21.01 173050796 --- -- ---xx dmb2008-08-01d2t01.flac
6:37.05 70042604 --- -- ---xx dmb2008-08-01d2t02.flac
19:56.73 211146140 --- -- ---xx dmb2008-08-01d2t03.flac
10:23.32 109972508 --- -- ---xx dmb2008-08-01d2t04.flac
5:16.21 55791836 --- -- ---xx dmb2008-08-01d2t05.flac
10:51.13 114867020 --- -- ---xx dmb2008-08-01d3t01.flac
4:43.43 50022380 --- -- ---xx dmb2008-08-01d3t02.flac
0:08.14 1444172 --- -- ---xx dmb2008-08-01d3t03.flac
9:00.11 95281916 --- -- ---xx dmb2008-08-01d3t04.flac
6:28.26 68504396 --- -- ---xx dmb2008-08-01d3t05.flac
0:40.19 7100732 --- -- ---xx dmb2008-08-01d3t06.flac
6:44.34 71345612 --- -- ---xx dmb2008-08-01d3t07.flac
7:08.02 75503948 --- -- ---xx dmb2008-08-01d3t08.flac
174:12.04 1843743220 B (totals for 23 files, 0.5096 overall compression ratio)<br><br>Need help downloading? Watch the video below:<br>
<iframe width="320" height="240" src="//www.youtube.com/embed/c6RmcCRiOSk?rel=0" frameborder="0" allowfullscreen></iframe><br><br>
Download here: